#TITLE:The Centrifuge Anthem;
#SUBTITLE:;
#ARTIST:Komprex;
#TITLETRANSLIT:;
#SUBTITLETRANSLIT:;
#ARTISTTRANSLIT:;
#CREDIT:;
#BANNER:Winter-bn.jpg;
#BACKGROUND:Winter-bg.jpg;
#LYRICSPATH:;
#CDTITLE:dark.gif;
#MUSIC:Winter.mp3;
#OFFSET:-0.180;
#SAMPLESTART:39.258;
#SAMPLELENGTH:12.500;
#SELECTABLE:YES;
#BPMS:0.000=130.000,32.000=150.000,63.000=180.000,93.000=220.000,125.000=270.000,156.000=329.999,186.000=399.998,217.000=479.997,248.000=569.996,326.000=599.996,459.000=609.996,462.000=629.996,465.000=659.995,468.000=699.995,471.000=750.014,474.000=810.013,477.000=880.012,480.000=960.011,483.000=1050.012,486.000=1149.996,489.000=1260.003,492.000=1380.009,495.000=1509.998,498.000=1650.006,578.000=130.000;
#STOPS:;
#BGCHANGES:;
// cache tags:
#FIRSTBEAT:0.000;
#LASTBEAT:588.813;
#SONGFILENAME:Songs/nhac/centrifuge/Winter.sm;
#HASMUSIC:1;
#HASBANNER:1;
#MUSICLENGTH:99.343;
// end cache tags

//---------------dance-single - ----------------
#NOTES:
     dance-single:
     :
     Challenge:
     15:
     1.000,1.000,1.000,0.070,0.206,625.000,128.000,7.000,0.000,0.000:
0001
0001
0010
0010
,
0100
0100
1000
2000
,
3100
0100
0010
0010
,
0100
0000
0000
0000
0000
0000
0000
0000
0000
0000
0000
0000
0000
0000
0000
0000
0100
0000
0000
0000
0000
0000
0000
0000
0000
0000
0000
0000
0000
0000
0000
0000
0020
0000
0000
0000
0000
0000
0000
0000
0000
0000
0000
0000
0000
0000
0000
0030
0020
0000
0000
0000
0000
0000
0000
0000
0000
0000
0000
0000
0000
0000
0000
0000
,
0130
0001
1000
0001
0100
0010
0100
0010
,
0001
0000
0000
0000
1000
0000
0000
0000
0001
0000
0000
0000
1000
0000
0000
0000
0010
0000
0000
0000
0001
0000
0000
0000
0020
0000
0000
0000
0000
0000
0000
0030
,
0110
0000
0000
0000
,
0000
0000
0000
0000
0000
0000
0001
0100
,
0010
1000
0010
0100
0001
1000
0010
0100
,
0001
0100
0010
0100
1000
0100
0001
0010
,
0100
1000
0100
0001
0100
0010
0100
1000
,
0100
0000
0010
0000
0001
0000
0010
1000
0100
0000
0001
0000
0010
0000
0100
0000
,
0010
1000
0010
0100
0001
0100
0001
0010
,
1000
0001
0100
0010
1000
0100
0101
0000
,
0000
0000
0000
0000
,
0000
0000
0000
0000
1000
0010
0100
0001
,
0100
0010
1000
0001
0100
0010
1000
0010
,
0100
0010
0001
0010
1000
0100
0010
0001
,
0010
1000
0010
0100
0010
0001
0010
0100
,
1000
0000
0100
0001
0010
0000
1000
0000
0100
0000
0010
0000
0100
0000
0001
0000
,
0100
0010
1000
0010
1000
0100
0001
1000
,
0010
0100
0001
0010
0001
0000
0000
0000
,
0000
0000
0000
0000
,
0000
1010
0101
0110
,
1010
0101
0011
1001
,
0110
0011
0101
1010
,
0101
0000
0011
0000
0110
0000
1001
0100
,
0011
0100
1001
0000
0101
0000
0110
0000
,
0011
0110
1100
0110
,
0011
1100
0000
0000
,
0000
0000
0000
0000
,
0011
0110
1001
0110
,
0011
0110
1100
0101
,
0011
0110
1001
0101
,
0011
0000
0110
0000
1100
0010
1001
0100
,
0011
0110
1010
0110
,
0101
1010
0101
0011
,
0101
0000
0000
0000
,
0000
0000
0000
0110
,
1001
1010
0101
1010
,
0110
0101
1001
0011
,
1001
1100
0011
1010
,
0110
0000
0011
0100
1001
0100
0011
0000
,
0110
1100
0011
0110
,
1001
0011
0101
1010
,
0000
0000
0000
0000
,
0000
0000
0011
0110
,
1001
0011
0110
1100
,
0101
0011
0110
1001
,
0110
0011
0101
1001
,
0101
1000
0110
0001
1010
0000
0110
0000
,
0101
1001
0110
0011
,
0101
1100
0110
0000
,
0000
0000
0000
0000
,
0000
0110
0101
1001
,
0101
0011
0101
1010
,
0110
0011
0101
1001
,
0110
0000
0101
0000
0011
0000
0110
1000
,
0011
0100
1001
0000
0101
0000
0011
0000
,
1010
0101
0011
0101
,
0011
0202
0000
0000
,
0000
0000
0000
0000
,
0000
0000
0000
0000
,
0000
0000
0000
0000
,
0000
0000
0000
0303
,
0000
0100
0001
1000
,
0100
0010
1000
0100
,
0001
0010
1000
0100
,
0010
1000
0100
0010
,
0100
0001
0100
0010
,
0001
0100
0010
1000
,
0010
0100
0001
0010
,
0001
0100
0000
1000
,
0000
0010
0001
1000
,
0001
0010
0100
0001
,
1000
0100
0010
0001
,
0100
0010
0001
0010
,
0100
0010
0001
1000
,
0010
0100
0010
0001
,
0010
0001
0100
0001
,
0010
0100
0000
0000
,
1000
0100
0010
0001
0010
0100
1000
0100
0010
0000
0000
0000
0001
0000
0000
0000
,
0100
0010
0100
0001
,
0010
0001
1000
0001
,
0010
0001
0100
0010
,
0001
1000
0001
0010
,
1000
0100
0001
1000
,
0001
0100
0010
0001
,
0010
0001
0100
1000
,
0100
0010
0100
0001
,
0010
0001
0100
1000
,
0001
1000
0100
0010
,
0001
1000
0010
0001
,
1000
0100
0001
0010
,
0001
0100
0001
0010
,
1000
0100
0001
0100
,
0010
0001
0010
0100
,
0001
0000
0000
0000
0000
0000
0000
0000
0001
0010
0100
1000
0100
0010
0001
0010
,
0100
0001
0100
0010
,
0100
0001
0010
0001
,
1000
0001
0010
0001
,
0100
0010
0001
1000
,
0010
0100
0001
0100
,
1000
0001
0010
0100
,
0010
0001
0010
0001
,
1000
0001
0100
0010
,
0100
0001
0010
0001
,
0010
0100
1000
0010
,
0100
0010
0001
0100
,
0010
0001
0010
0100
,
0001
0010
1000
0100
,
0001
0010
0001
1000
,
0001
0100
0010
0001
,
0010
0100
0001
0010
,
0000
0000
0000
0000
0001
0010
0100
1000
0100
0010
0001
0010
0100
0000
0000
0000
,
0001
0010
0100
0010
,
0001
0100
1000
0100
,
0010
0100
1000
0001
,
0010
0001
0100
0010
,
0100
1000
0100
0010
,
0100
0001
0010
0100
,
0010
1000
0100
1000
,
0001
0100
0010
0100
,
1000
0001
0100
0010
,
0100
1000
0100
0001
,
0100
1000
0100
0001
,
0010
0100
0010
0001
,
0100
1000
0100
1000
,
0001
0010
0001
0100
,
0010
0100
1000
0100
,
0001
0010
0100
0001
,
0010
0100
0010
0001
,
0100
0010
0100
0001
,
0010
0001
1000
0100
,
0001
0010
1000
0100
,
0001
0010
0100
0001
,
0100
1000
0001
0100
,
0010
0100
0001
1000
,
0010
0100
0001
1000
,
0010
0001
0100
0010
,
0001
0000
0000
0010
0000
0100
0000
0001
0000
0010
0000
0100
,
0000
1000
0000
0100
0000
0010
0000
0001
0000
0100
0000
0010
,
0000
1000
0000
0010
0000
0001
0000
0100
0000
0001
0000
0100
,
0000
0000
0000
0000
0001
0000
0000
0000
0000
0000
0000
0000
0010
0000
0000
1000
0000
0000
0100
0000
0000
0010
0000
0000
0001
0000
0000
1000
0000
0000
0100
0000
0000
0010
0000
0000
0100
0000
0000
1000
0000
0000
0001
0000
0000
0100
0000
0000
,
0010
0000
0000
0000
1000
0000
0000
0000
0100
0000
0000
0000
0010
0000
0000
0000
0001
0000
0000
0000
0100
0000
0000
0000
1000
0000
0000
0000
0010
0000
0000
0000
0101
0000
0000
0000
0000
0000
0000
0000
0000
0000
0000
1000
0000
0000
0000
0000
0000
0000
0000
0000
0000
0100
0000
0000
0000
0000
0000
0000
0000
0000
0000
0000
,
0010
0000
0000
0000
0000
0000
0000
0000
0000
0000
0000
0001
0000
0000
0000
0000
0000
0000
0000
0000
0000
0000
0010
0000
0000
0000
0000
0000
0000
0000
0000
0000
0100
0000
0000
0000
0000
0000
0000
0000
0000
0000
0000
0000
0000
2000
0000
0000
0000
0000
0000
0000
0000
0000
0000
0000
0000
0000
0000
0000
0000
0000
0000
0000
,
0000
0000
0000
0000
,
0000
0000
0000
0000
0000
0000
0000
0000
0000
0000
0000
0000
0000
3000
0000
0000
0000
0000
0000
0000
0000
0000
0000
0000
0000
0000
0000
0000
0000
0000
0000
0000
0000
0000
0000
0000
0000
0000
0000
0000
0000
0000
0000
0000
0000
0000
0000
0000
0000
0000
0000
0000
0000
0000
0000
0000
0000
0000
0000
0000
0000
0000
0000
0000
;
